смотреть онлайн / скачать торрент Слово пацана. Кровь на асфальте

1 сезон

смотреть онлайн / скачать торрент Убийца

Дубляж

смотреть онлайн / скачать торрент Монарх: Наследие монстров

1 сезон

Активация Assassins Creed Mirage

Deluxe

Активация Mortal Kombat 1 Premium Edition

Premium

Активация Atomic Heart - Annihilation Instinct

ВСЕ DLC

смотреть онлайн / скачать торрент Создатель

Дубляж

смотреть онлайн / скачать торрент Цикады

1 сезон

смотреть онлайн / скачать торрент Фарго / Сезон: 5

5 сезон

смотреть онлайн / скачать торрент Убийцы цветочной луны

Дубляж

Рекомендуем

Рекомендуем

ВАЖНО

ВАЖНО

скачать торрент Lords of the Fallen

Steam-Rip

ARMORED CORE™ VI FIRES OF RUBICON™

Steam-Rip

jed

RePack

PAYDAY 3

Пиратка

RDR2

RePack

Hogwarts Legacy

Steam-Rip

смотреть онлайн / скачать торрент Захваченный

Невафильм

смотреть онлайн / скачать торрент Острые козырьки 6 сезон

6 сезон

FAR CRY 6

RePack

скачать торрент Dead Island™ 2

EGS-Rip

скачать торрент The Quarry

Steam-Rip

  

Элементарно / Elemental (Питер Сон) [2023, Мультфильм, фантастика, фэнтези, драма, комедия, приключения, семейный, BDRip 1080p] Дубляж (rus, ukr) [MovieDalen, HotVoice 41] +MVO [TVShows]

Элементарно через торрент pirat.one

Раздают: 6 [ 0 KB/s ]
Размер: 15.96 GB | Добавлен: 2 мес. 20 д. назад | Торрент скачан:149 раз
Atomic Heart+Annihilation Instinct активация

2023-08-15 15:03 Элементарно Скачать торрент  

Элементарно
Elemental

Год выпуска: 2023
Страна: США
Студия: Pixar Animation Studios, Walt Disney Pictures
Жанр: Мультфильм, фантастика, фэнтези, драма, комедия, приключения, семейный
Продолжительность: 01:41:28
Перевод:
Дублированный (официальный) | MovieDalen
Дублированный (неофициальный) | HotVoice 41
Профессиональный многоголосый | TVShows
Дублированный (официальный (украинский) | Le Doyen
Субтитры: Русские (Forced, full), украинские (Forced, full), английские

Режиссер: Питер Сон

рейтинг кинопоиск рейтинг imdb

В ролях: Леа Льюис, Мамуду Ати, Роналдо Дель Кармен, Шила Омми, Венди Маклендон-Кови, Кэтрин О’Хара, Мэйсон Вартхаймер, Ронобир Лахири, Уильма Бонет, Джо Пера

Описание: В Городе Стихий обитатели огня, воды, земли и воздуха живут вместе. У сильной и вспыльчивой Эмбер завязывается дружба с расслабленным, плывущим по течению Уэйдом — дружба, которая бросит вызов её представлениям о мире вокруг.

Качество: BDRip 1080p
Формат: MKV

Видео: MPEG-4 AVC, 1920x1038, 20.5 Mbit/s, 23.976 fps
Аудио #01: 48 kHz, AC3, 2.0, 192 Kbps | Профессиональный (дублированный) | MovieDalen | RUS |
Аудио #02: 48 kHz, AC3, 5.1, 640 Kbps | Неофициальный (дублированный) | HotVoice 41 | RUS |
Аудио #03: 48 kHz, AC3, 2.0, 256 Kbps | Профессиональный многоголосый | TVShows | RUS |
Аудио #04: 48 kHz, E-AC3, 5.1, 256 Kbps | Дублированный | UKR |
Аудио #05: 48 kHz, AC3, 5.1, 640 Kbps | Оригинал | ENG |
скриншот  скриншот  скриншот  скриншот  

General
Unique ID: 213188657920309638084170921184246413728 (0xA062A45AB7C799F930A541886C28B9A0)
Complete name: G: VideoGElemental.2023.1080p.D.MVO.BDRip.1080p.seleZen.mkv
Format: Matroska
Format version: Version 4
File size: 16.0 GiB
Duration: 1 h 41 min
Overall bit rate: 22.5 Mb/s
Frame rate: 23.976 FPS
Movie name: Elemental 2023 from seleZen
Encoded date: 18.09.2023 19:01:18 UTC
Writing application: mkvmerge v63.0.0 ('Everything') 64-bit
Writing library: libebml v1.4.2 + libmatroska v1.6.4

Video
ID: 1
Format: AVC
Format/Info: Advanced Video Codec
Format profile: [email protected]
Format settings: CABAC / 4 Ref Frames
Format settings, CABAC: Yes
Format settings, Reference frames: 4 frames
Codec ID: V_MPEG4/ISO/AVC
Duration: 1 h 41 min
Bit rate: 20.5 Mb/s
Width: 1 920 pixels
Height: 1 038 pixels
Display aspect ratio: 1.85:1
Frame rate mode: Constant
Frame rate: 23.976 (24000/1001) FPS
Color space: YUV
Chroma subsampling: 4:2:0
Bit depth: 8 bits
Scan type: Progressive
Bits/(Pixel*Frame): 0.430
Stream size: 14.5 GiB (91%)
Title: MTeam
Writing library: x264 core 157 r2938 2b00a84 TnP@MTeam Mod
Encoding settings: cabac=1 / ref=4 / deblock=1:-3:-3 / analyse=0×3:0×133 / me=umh / subme=10 / psy=1 / psy_rd=1.05:0.00 / mixed_ref=1 / me_range=32 / chroma_me=1 / trellis=2 / 8×8dct=1 / cqm=0 / deadzone=21,11 / fast_pskip=0 / chroma_qp_offset=-2 / threads=12 / lookahead_threads=2 / sliced_threads=0 / nr=0 / decimate=0 / interlaced=0 / bluray_compat=0 / constrained_intra=0 / bframes=8 / b_pyramid=2 / b_adapt=2 / b_bias=0 / direct=3 / weightb=1 / open_gop=0 / weightp=2 / keyint=250 / keyint_min=24 / scenecut=40 / intra_refresh=0 / rc_lookahead=250 / rc=crf / mbtree=0 / crf=16.8 / qcomp=0.60 / qpmin=0 / qpmax=69 / qpstep=4 / vbv_maxrate=62500 / vbv_bufsize=78125 / crf_max=0.0 / nal_hrd=none / filler=0 / ip_ratio=1.30 / pb_ratio=1.20 / aq=3:0.80
Language: English
Default: Yes
Forced: No
Color range: Limited
Color primaries: BT.709
Matrix coefficients: BT.709

Audio #1
ID: 2
Format: AC-3
Format/Info: Audio Coding 3
Commercial name: Dolby Digital
Codec ID: A_AC3
Duration: 1 h 41 min
Bit rate mode: Constant
Bit rate: 192 kb/s
Channel (s): 2 channels
Channel layout: L R
Sampling rate: 48.0 kHz
Frame rate: 31.250 FPS (1536 SPF)
Compression mode: Lossy
Stream size: 139 MiB (1%)
Title: Дубляж [MovieDalen]
Language: Russian
Service kind: Complete Main
Default: Yes
Forced: No

Audio #2
ID: 3
Format: AC-3
Format/Info: Audio Coding 3
Commercial name: Dolby Digital
Codec ID: A_AC3
Duration: 1 h 41 min
Bit rate mode: Constant
Bit rate: 640 kb/s
Channel (s): 6 channels
Channel layout: L R C LFE Ls Rs
Sampling rate: 48.0 kHz
Frame rate: 31.250 FPS (1536 SPF)
Compression mode: Lossy
Stream size: 464 MiB (3%)
Title: Дубляж [HotVoice 41]
Language: Russian
Service kind: Complete Main
Default: No
Forced: No

Audio #3
ID: 4
Format: AC-3
Format/Info: Audio Coding 3
Commercial name: Dolby Digital
Codec ID: A_AC3
Duration: 1 h 41 min
Bit rate mode: Constant
Bit rate: 256 kb/s
Channel (s): 2 channels
Channel layout: L R
Sampling rate: 48.0 kHz
Frame rate: 31.250 FPS (1536 SPF)
Compression mode: Lossy
Stream size: 186 MiB (1%)
Title: MVO [TVShows]
Language: Russian
Service kind: Complete Main
Default: No
Forced: No

Audio #4
ID: 5
Format: E-AC-3
Format/Info: Enhanced AC-3
Commercial name: Dolby Digital Plus
Codec ID: A_EAC3
Duration: 1 h 41 min
Bit rate mode: Constant
Bit rate: 256 kb/s
Channel (s): 6 channels
Channel layout: L R C LFE Ls Rs
Sampling rate: 48.0 kHz
Frame rate: 31.250 FPS (1536 SPF)
Compression mode: Lossy
Stream size: 186 MiB (1%)
Title: Дубляж
Language: Ukrainian
Service kind: Complete Main
Default: No
Forced: No

Audio #5
ID: 6
Format: AC-3
Format/Info: Audio Coding 3
Commercial name: Dolby Digital
Codec ID: A_AC3
Duration: 1 h 41 min
Bit rate mode: Constant
Bit rate: 640 kb/s
Channel (s): 6 channels
Channel layout: L R C LFE Ls Rs
Sampling rate: 48.0 kHz
Frame rate: 31.250 FPS (1536 SPF)
Compression mode: Lossy
Stream size: 464 MiB (3%)
Title: Original
Language: English
Service kind: Complete Main
Default: No
Forced: No

Text #1
ID: 7
Format: UTF-8
Codec ID: S_TEXT/UTF8
Codec ID/Info: UTF-8 Plain Text
Duration: 1 h 25 min
Bit rate: 1 b/s
Frame rate: 0.004 FPS
Count of elements: 23
Stream size: 779 Bytes (0%)
Title: Forced
Language: Russian
Default: Yes
Forced: No

Text #2
ID: 8
Format: UTF-8
Codec ID: S_TEXT/UTF8
Codec ID/Info: UTF-8 Plain Text
Duration: 1 h 28 min
Bit rate: 81 b/s
Frame rate: 0.225 FPS
Count of elements: 1197
Stream size: 52.5 KiB (0%)
Title: Full
Language: Russian
Default: No
Forced: No

Text #3
ID: 9
Format: UTF-8
Codec ID: S_TEXT/UTF8
Codec ID/Info: UTF-8 Plain Text
Duration: 1 h 25 min
Bit rate: 0 b/s
Frame rate: 0.003 FPS
Count of elements: 17
Stream size: 575 Bytes (0%)
Title: Forced
Language: Ukrainian
Default: No
Forced: No

Text #4
ID: 10
Format: UTF-8
Codec ID: S_TEXT/UTF8
Codec ID/Info: UTF-8 Plain Text
Duration: 1 h 39 min
Bit rate: 81 b/s
Frame rate: 0.210 FPS
Count of elements: 1253
Stream size: 59.1 KiB (0%)
Title: Full
Language: Ukrainian
Default: No
Forced: No

Text #5
ID: 11
Format: UTF-8
Codec ID: S_TEXT/UTF8
Codec ID/Info: UTF-8 Plain Text
Duration: 1 h 32 min
Bit rate: 52 b/s
Frame rate: 0.220 FPS
Count of elements: 1224
Stream size: 35.3 KiB (0%)
Title: Full
Language: English
Default: No
Forced: No

Text #6
ID: 12
Format: UTF-8
Codec ID: S_TEXT/UTF8
Codec ID/Info: UTF-8 Plain Text
Duration: 1 h 38 min
Bit rate: 68 b/s
Frame rate: 0.335 FPS
Count of elements: 1976
Stream size: 49.6 KiB (0%)
Title: SDH
Language: English
Default: No
Forced: No

Menu
00:00:00.000: en: Chapter 01
00:08:16.162: en: Chapter 02
00:11:11.170: en: Chapter 03
00:14:24.572: en: Chapter 04
00:18:14.385: en: Chapter 05
00:21:24.741: en: Chapter 06
00:22:54.915: en: Chapter 07
00:25:24.231: en: Chapter 08
00:26:11.194: en: Chapter 09
00:31:29.220: en: Chapter 10
00:32:33.368: en: Chapter 11
00:35:54.235: en: Chapter 12
00:38:32.018: en: Chapter 13
00:42:43.185: en: Chapter 14
00:47:12.120: en: Chapter 15
00:51:35.634: en: Chapter 16
00:58:51.527: en: Chapter 17
01:02:46.262: en: Chapter 18
01:05:08.571: en: Chapter 19
01:09:46.015: en: Chapter 20
01:13:47.589: en: Chapter 21
01:18:00.592: en: Chapter 22
01:19:22.257: en: Chapter 23
01:24:23.266: en: Chapter 24
01:28:28.511: en: Chapter 25
01:31:37.825: en: Chapter 26
01:33:51.875: en: Chapter 27



Смотрeть онлайн Фильм Элементарно в хорошем HD 1080 качестве



Описание: В Городе Стихий обитатели огня, воды, земли и воздуха живут вместе. У сильной и вспыльчивой Эмбер завязывается дружба с ... https://i.postimg.cc/L8kDf5xG/cover.jpg https://i.postimg.cc/L8kDf5xG/cover.jpg 2023-08-15 15:03 Cмотреть онлайн Элементарно true ru Скачать Элементарно через торрент, смотреть онлайн Элементарно https://i.postimg.cc/L8kDf5xG/cover.jpg Скачать торрент Элементарно , смотреть онлайн Элементарно , бесплатно в хорошем качестве Описание: В Городе Стихий обитатели огня, воды, земли и воздуха живут вместе. У сильной и вспыльчивой Эмбер завязывается дружба с ... 9.6 10 20
Info! Золотая раздача, скачанное не засчитывается.
Торрент: Зарегистрирован [2023-09-19 03:49] · скачан: 149 раз
Статус: √ проверено
Размер: 15.96 GB
Как cкачать? Как скачать Элементарно через торрент | UTorrent | Поделиться в телеграм

% Раздел Тема Автор DL S | L
Иностранные мультфильмы [ 2.97 GB ] Элементарно / Elemental | TVShows | HDRip-AVC bober100 Скачать
13 | 0
Зарубежные Мультфильмы (BDRip 1080p, 720p, Blu-ray, BD-Remux) [ 7.13 GB ] Элементарно / Elemental | TVShows | 720p bober100 Скачать
9 | 0



Последний раз редактировалось: bober100 (2023-09-19 03:51), всего редактировалось 2 раз(а)

28-11-2019 20:33  


Отключить вcю реклaмy на сайте!

2023-08-18 08:00 Элементарно Скачать торрент  

зашел посмотреть что тут за чудо с десятком жанров, увидел дисней, почитал про "У сильной и вспыльчивой Эмбер завязывается дружба с расслабленным, плывущим по течению Уэйдом", убедился что диснею даже пиксар уже не поможет. ну не дибилы ли одно и тоже во всех мультах продвигать?



2023-08-19 13:25 Элементарно Скачать торрент  

Хорошо что ЛГБТ нет. Либо они хорошо их замаскировали ))
А так мульт довольно сносный... на 4ку



2023-08-20 03:20 Элементарно Скачать торрент  

swjk писал(а):

Хорошо что ЛГБТ нет. Либо они хорошо их замаскировали ))
А так мульт довольно сносный... на 4ку

То есть цвет названия тебя не смущает ))))))))



    Дорогой пользователь! Огромная просьба, поблагодарите релизера, оцените раздачу и оставьте свои комментарий, если Вы скачали Элементарно через торрент бесплатно!!
    Комментировать посты могут только пользователи прошедшие не сложную регистрацию
    Показать сообщения:    


    смотреть онлайн Элементарно
    Элементарно через торрент
    Скачать бесплатно Элементарно
    Элементарно скачать торрент
    Элементарно смотреть онлайн
    Cкачать фильм Элементарно бесплатно
    Элементарно скачать торрент в хорошем качестве
    Элементарно смотреть онлайн бесплатно в хорошем качестве
    Вы не можете начинать темы
    Вы не можете отвечать на сообщения
    Вы не можете редактировать свои сообщения
    Вы не можете удалять свои сообщения
    Вы не можете голосовать в опросах
    Вы не можете прикреплять файлы к сообщениям
    Вы можете скачивать файлы